Tweety na temat @windowsmaniapl
r   e   k   l   a   m   a
Pokaż wyniki od 1 do 8 z 8

Wątek: Rozmiar nagrywanych plików wideo

  1. #1

    OFF-LINE
    Awatar Pelcu

    Dołączył
    08.02.2015
    Lokalizacja
    PZ
    Posty
    15
    Telefon
    735
    Operator
    Play
    Dziękuję
    10
    Podziękowano
    0(0)

    Question Rozmiar nagrywanych plików wideo

    Reklama:
    735 mam od kilku i chciałbym zapytać o to jaki rozmiar (MB) mają nagrywane dłuższe filmy w 720p i 1080p? Np.: ile waży półgodzinny film.
    Chciałbym używać smartphona jako kamerki samochodowej i zastanawiam się nad tym jaka karta pamięci będzie odpowiednia.
    Nokia Lumia 735 Dark Grey + WP 8.1 (02040.00019.14484.24002) + ADATA Premier UHS-1 class10 32 GB + Nokia DT-601

  2. Pani SponsorPanna Google jest aktywna
    Avatar Panny Google


    Dołączył
    24-08-2012
    Skąd
    Internet
    Telefon
    Lumia 900
    Operator
    Play
    Postów
    2134
    Podziękowano
    871(239)
  • #2

    OFF-LINE
    Awatar alvinek

    Dołączył
    02.11.2014
    Posty
    200
    Telefon
    Lumia 830
    Operator
    Plus
    Dziękuję
    21
    Podziękowano
    25(18)
    U mnie wygląda to tak [Lumia 830].

    [email protected]
    File size : 2.31 GiB
    Duration : 16mn 50s
    Overall bit rate : 19.6 Mbps
    Duration : 16mn 50s
    Width : 1 920 pixels
    Height : 1 080 pixels

    Tak więc pół godziny nagrania 1080p przy bitrate ~20mbps wyniesie ~4,5gb.

    [email protected]
    File size : 1.27 GiB
    Duration : 17mn 3s
    Overall bit rate : 10.6 Mbps
    Width : 1 280 pixels
    Height : 720 pixels

    Tutaj mamy bitrate 10mbps, czyli pół mniej. Jakoś 2,25gb.

    Gdy będę miał czas mogę sprawdzić inne tryby (np. [email protected] albo [email protected]).
    Ostatnio edytowane przez alvinek ; 16-02-2015 o 18:54

  • Jeden użytkownik podziękował alvinek za ten post:

    djtonka (16-02-2015)

  • #3

    OFF-LINE
    Awatar samogon

    Dołączył
    05.01.2015
    Lokalizacja
    Szczecin
    Posty
    5
    Telefon
    Nokia Lumia 735
    FW
    8.10.15148.160
    Operator
    Orange
    Dziękuję
    5
    Podziękowano
    2(2)
    Przykładowe wielkości przy 1080: (min:sek)
    1:30 - 205 MB
    1:11 - 163 MB

  • Jeden użytkownik podziękował samogon za ten post:

    Pelcu (16-02-2015)

  • #4

    OFF-LINE
    Awatar Pelcu

    Dołączył
    08.02.2015
    Lokalizacja
    PZ
    Posty
    15
    Telefon
    735
    Operator
    Play
    Dziękuję
    10
    Podziękowano
    0(0)
    Ok, porobiłem testy swojej 735. Nagrywane w ciągu dnia, Lumia Camerą w 1080p, na Adata 32GB 10 Class. Ciekawe, że telefon nie pozwolił na nagranie dluzszych filmów. Domyślam się, że może chodzić o FAT32.

    Kod:
    General
    Complete name                            : WP_20150301_13_24_54_Pro.mp4
    Format                                   : MPEG-4
    Format profile                           : Base Media / Version 2
    Codec ID                                 : mp42
    File size                                : 3.95 GiB
    Duration                                 : 29mn 32s
    Overall bit rate                         : 19.2 Mbps
    
    Video
    ID                                       : 1
    Format                                   : AVC
    Format/Info                              : Advanced Video Codec
    Format profile                           : [email protected]
    Format settings, CABAC                   : No
    Format settings, ReFrames                : 1 frame
    Format settings, GOP                     : M=1, N=30
    Codec ID                                 : avc1
    Codec ID/Info                            : Advanced Video Coding
    Duration                                 : 29mn 32s
    Source duration                          : 29mn 32s
    Bit rate mode                            : Variable
    Bit rate                                 : 19.0 Mbps
    Width                                    : 1 920 pixels
    Height                                   : 1 080 pixels
    Display aspect ratio                     : 16:9
    Frame rate mode                          : Variable
    Frame rate                               : 30.000 fps
    Minimum frame rate                       : 28.958 fps
    Maximum frame rate                       : 31.250 fps
    Color space                              : YUV
    Chroma subsampling                       : 4:2:0
    Bit depth                                : 8 bits
    Scan type                                : Progressive
    Bits/(Pixel*Frame)                       : 0.305
    Stream size                              : 3.92 GiB (99%)
    Source stream size                       : 3.92 GiB (99%)
    
    Audio
    ID                                       : 2
    Format                                   : AAC
    Format/Info                              : Advanced Audio Codec
    Format profile                           : LC
    Codec ID                                 : 40
    Duration                                 : 29mn 31s
    Source duration                          : 29mn 31s
    Bit rate mode                            : Constant
    Bit rate                                 : 160 Kbps
    Channel(s)                               : 1 channel
    Channel positions                        : Front: C
    Sampling rate                            : 48.0 KHz
    Compression mode                         : Lossy
    Stream size                              : 33.1 MiB (1%)
    Source stream size                       : 33.1 MiB (1%)
    Kod:
    General
    Complete name                            : WP_20150301_13_54_44_Pro.mp4
    Format                                   : MPEG-4
    Format profile                           : Base Media / Version 2
    Codec ID                                 : mp42
    File size                                : 3.95 GiB
    Duration                                 : 29mn 32s
    Overall bit rate                         : 19.2 Mbps
    
    Video
    ID                                       : 1
    Format                                   : AVC
    Format/Info                              : Advanced Video Codec
    Format profile                           : [email protected]
    Format settings, CABAC                   : No
    Format settings, ReFrames                : 1 frame
    Format settings, GOP                     : M=1, N=30
    Codec ID                                 : avc1
    Codec ID/Info                            : Advanced Video Coding
    Duration                                 : 29mn 32s
    Source duration                          : 29mn 32s
    Bit rate mode                            : Variable
    Bit rate                                 : 19.0 Mbps
    Width                                    : 1 920 pixels
    Height                                   : 1 080 pixels
    Display aspect ratio                     : 16:9
    Frame rate mode                          : Variable
    Frame rate                               : 30.000 fps
    Minimum frame rate                       : 29.014 fps
    Maximum frame rate                       : 31.153 fps
    Color space                              : YUV
    Chroma subsampling                       : 4:2:0
    Bit depth                                : 8 bits
    Scan type                                : Progressive
    Bits/(Pixel*Frame)                       : 0.305
    Stream size                              : 3.92 GiB (99%)
    Source stream size                       : 3.92 GiB (99%)
    
    Audio
    ID                                       : 2
    Format                                   : AAC
    Format/Info                              : Advanced Audio Codec
    Format profile                           : LC
    Codec ID                                 : 40
    Duration                                 : 29mn 31s
    Source duration                          : 29mn 31s
    Bit rate mode                            : Constant
    Bit rate                                 : 160 Kbps
    Channel(s)                               : 1 channel
    Channel positions                        : Front: C
    Sampling rate                            : 48.0 KHz
    Compression mode                         : Lossy
    Stream size                              : 33.1 MiB (1%)
    Source stream size                       : 33.1 MiB (1%)
    Nokia Lumia 735 Dark Grey + WP 8.1 (02040.00019.14484.24002) + ADATA Premier UHS-1 class10 32 GB + Nokia DT-601

  • #5

    ON-LINE
    Awatar djtonka

    Dołączył
    19.08.2012
    Posty
    20,880
    Telefon
    jakiś amerykański
    FW
    fresz
    Operator
    rydzyk
    Dziękuję
    7,947
    Podziękowano
    221,830(11,122)
    tak, zmień format na exfat i problem z długością zniknie choć i tak w sofcie są bugi

  • #6

    OFF-LINE
    Awatar Pelcu

    Dołączył
    08.02.2015
    Lokalizacja
    PZ
    Posty
    15
    Telefon
    735
    Operator
    Play
    Dziękuję
    10
    Podziękowano
    0(0)
    Ja specjalnie zmieniłem formatowanie karty na takie nierozpoznawalne przez telefon, żeby ten sam ja sformatował i jak widać zrobił to na FAT32, więc niech tak zostanie. nie potrzebne mi większe pliki w telefonie. w sumie tak bezpieczniej w 30 min częściach nagrywać drogę.

    Podsumowując, chcąc nagrywać jazdę samochodem trzeba wyposażyć się w dużą memorkę.
    Ostatnio edytowane przez Pelcu ; 02-03-2015 o 22:21
    Nokia Lumia 735 Dark Grey + WP 8.1 (02040.00019.14484.24002) + ADATA Premier UHS-1 class10 32 GB + Nokia DT-601

  • #7

    OFF-LINE
    Awatar alvinek

    Dołączył
    02.11.2014
    Posty
    200
    Telefon
    Lumia 830
    Operator
    Plus
    Dziękuję
    21
    Podziękowano
    25(18)
    [email protected] i gitara. A telefon tak formatuje bo tak preferuje . Sam telefon ma chyba ustalony limit nagrania, chyba 12 godzin(?), więc nagrywanie takimi długościami Microsoft przewidział. (Coś jest programowo ustawione nie pamiętam co. djtonka oświeć mnie )
    Wysłane z Lumii 830

  • #8

    ON-LINE
    Awatar djtonka

    Dołączył
    19.08.2012
    Posty
    20,880
    Telefon
    jakiś amerykański
    FW
    fresz
    Operator
    rydzyk
    Dziękuję
    7,947
    Podziękowano
    221,830(11,122)
    Nie...żadne 12h. Albo limit ze względu na FAT. Potem już sam telefon do czasu przegrzania takie wcześniej były limity na L920/820

  • Informacje o wątku

    Użytkownicy przeglądający ten wątek

    Aktualnie 1 użytkownik(ów) przegląda ten wątek. (0 zarejestrowany(ch) oraz 1 gości)

    Podobne wątki

    1. Jak zmniejszyć rozmiar plików wideo?
      Przez link2jack w dziale Pytania i odpowiedzi
      Odpowiedzi: 1
      Ostatni post / autor: 12-12-2014, 21:28
    2. Odpowiedzi: 0
      Ostatni post / autor: 05-11-2014, 23:39
    3. Odpowiedzi: 4
      Ostatni post / autor: 17-04-2014, 17:45
    4. Lokalizacja plików wideo odebranych przez Bluetooth
      Przez retros w dziale Pytania i odpowiedzi
      Odpowiedzi: 7
      Ostatni post / autor: 13-06-2013, 09:37
    5. Transfer plików pdf z komputera do Office (wideo)
      Przez djtonka w dziale Poradniki
      Odpowiedzi: 0
      Ostatni post / autor: 18-10-2012, 22:50

    Uprawnienia umieszczania postów

    • Nie możesz zakładać nowych tematów
    • Nie możesz pisać wiadomości
    • Nie możesz dodawać załączników
    • Nie możesz edytować swoich postów
    •  
    Kontakt
    administracja[at]windowsmania.pl

    Kopiowanie zawartości strony bez zezwolenia zabronione
    Dołącz do nas